SEMania.cz Fórum Bazar Galerie Download E-shop Sony Ericsson

Vítejte, Anonym. Prosím přihlašte se nebo se zaregistrujte.
Nepřišel Vám aktivační email?
18. Leden 2018, 20:48

Zadejte uživateské jméno, heslo a dobu přihlášení
Hledat:     Pokročilé vyhledávání
142432 příspěvků v 9975 tématech od 23744 uživatelů
Nejnovější uživatel: latura
* Domů Nápověda Hledat Přihlásit Registrovat
Fórum SEMania.cz  |  Platforma A200  |  Řada C (Moderátor: Ganimed)  |  Téma: H.264 trubl
Strana: [1]
Poslat téma Tisk
Autor Téma: H.264 trubl  (Zobrazeno 3748 x)
spratek
Uživatel
***
Telefon: C702
Příspěvků: 141


Zobrazit profil
« v: 12. Červenec 2010, 15:13 »

Zdar,

taky vám telefony řady A200 nezvládají plynule přehrát video v režimu h.264 ?
jako hraje plynule ale po nějaké době je vidět že zaostává za zvukem.
uložena
Swejzi
Uživatel
***
Telefon: C702
Příspěvků: 32


Zobrazit profil
« Odpověď #1 v: 12. Červenec 2010, 15:54 »

Opožďuje se to když je vysoký bitrate. Pokud nastavíš bitrate do cca 300kbps, což na rozlišení 320x240 bohatě stačí, tak by s tím neměl být problém. Fps mám klidně 25 a neopožďuje se to.
uložena
spratek
Uživatel
***
Telefon: C702
Příspěvků: 141


Zobrazit profil
« Odpověď #2 v: 12. Červenec 2010, 16:02 »

do 300kbps ?

tak to já mám tak 350 ale dohromady i s audiem, který je AAC 96kbps, takže na video zbejvá nějakých ~250kbps takže by to mělo bejt v limitu a stejně se to zpožďuje.
ale nějakou dobu to drží krok a pak najednou se to na chvilku zastaví a tím vzniká to zpožďění takže hw by to procesor zvládat měl...ale proč se to občas pozastaví...
uložena
dracek116
Uživatel
***
Telefon: SE Hazel, Micro SD HC 8GB, HPM 90
Příspěvků: 58



Zobrazit profil
« Odpověď #3 v: 12. Červenec 2010, 16:11 »

Me to dala c702 tez, po aktualizaci medii se to srovna. Stavalo se mi to pri pretaceni videa a pri pauznuti jak kdy...nejspis chyba fw
uložena
spratek
Uživatel
***
Telefon: C702
Příspěvků: 141


Zobrazit profil
« Odpověď #4 v: 12. Červenec 2010, 16:22 »

tak jako příklad videa co nestíhá za zvukem:

Kód:
General
Complete name                    : Q:\video\testfilm.mp4
Format                           : MPEG-4
Format profile                   : Base Media
Codec ID                         : isom
File size                        : 248 MiB
Duration                         : 1h 41mn
Overall bit rate                 : 343 Kbps
Encoded date                     : UTC 2010-07-11 08:34:02
Tagged date                      : UTC 2010-07-11 08:34:02

Video
ID                               : 1
Format                           : AVC
Format/Info                      : Advanced Video Codec
Format profile                   : [email protected]
Format settings, CABAC           : No
Format settings, ReFrames        : 7 frames
Codec ID                         : avc1
Codec ID/Info                    : Advanced Video Coding
Duration                         : 1h 41mn
Bit rate mode                    : Variable
Bit rate                         : 286 Kbps
Maximum bit rate                 : 1 422 Kbps
Width                            : 320 pixels
Height                           : 240 pixels
Display aspect ratio             : 4:3
Frame rate mode                  : Constant
Frame rate                       : 30.000 fps
Color space                      : YUV
Chroma subsampling               : 4:2:0
Bit depth                        : 8 bits
Scan type                        : Progressive
Bits/(Pixel*Frame)               : 0.124
Stream size                      : 206 MiB (83%)
Title                            : Video
Writing library                  : x264 core 100 r1659 57b2e56
Encoding settings                : cabac=0 / ref=7 / deblock=0:0:0 / analyse=0x1:0x131 / me=umh / subme=9 / psy=1 / psy_rd=1.00:0.00 / mixed_ref=1 / me_range=24 / chroma_me=1 / trellis=0 / 8x8dct=0 / cqm=0 / deadzone=21,11 / fast_pskip=1 / chroma_qp_offset=-2 / threads=3 / sliced_threads=0 / nr=0 / decimate=1 / interlaced=0 / constrained_intra=0 / bframes=0 / weightp=0 / keyint=250 / keyint_min=25 / scenecut=40 / intra_refresh=0 / rc_lookahead=60 / rc=crf / mbtree=1 / crf=23.0 / qcomp=0.60 / qpmin=10 / qpmax=51 / qpstep=4 / ip_ratio=1.40 / aq=1:1.00
Encoded date                     : UTC 2010-07-11 08:34:02
Tagged date                      : UTC 2010-07-11 08:34:13

Audio
ID                               : 2
Format                           : AAC
Format/Info                      : Advanced Audio Codec
Format version                   : Version 4
Format profile                   : LC
Format settings, SBR             : Yes
Format settings, PS              : No
Codec ID                         : 40
Duration                         : 1h 41mn
Bit rate mode                    : Variable
Bit rate                         : 56.1 Kbps
Maximum bit rate                 : 71.0 Kbps
Channel(s)                       : 2 channels
Channel positions                : Front: L R
Sampling rate                    : 44.1 KHz
Stream size                      : 40.5 MiB (16%)
Title                            : English
Language                         : English
Encoded date                     : UTC 2010-07-11 08:34:12
Tagged date                      : UTC 2010-07-11 08:34:13


video má 343, zvuk má 96 takže na video vychází 247 kbps což by mělo být v pohodě v normě,

video je ale ve VBR módu takže těch 247 kbps je průměrných, může to být tím ??
uložena
Swejzi
Uživatel
***
Telefon: C702
Příspěvků: 32


Zobrazit profil
« Odpověď #5 v: 12. Červenec 2010, 19:53 »

Možná i záleží jakým sw se video konvertuje. Já používám Xillsoft 3GP Video converter a pohoda.
uložena
Sasakr
Uživatel
***
Pohlaví: Muž
Telefon: Nokia E5
Příspěvků: 745



Zobrazit profil
« Odpověď #6 v: 12. Červenec 2010, 23:41 »

Je to divný, osobně bych zkusil jiný obrazový kodek (mpeg4), ten jsem zkoušel, když jsem měl telefon nový (W910) a přehrával plynule i s mnohem vyšším bitrate. Pokud by to ani tak z nějakého záhadného důvodu nezvládal, klidně bych zkusil snížit FPS na 25, což při tom rozlišení stačí.
uložena

spratek
Uživatel
***
Telefon: C702
Příspěvků: 141


Zobrazit profil
« Odpověď #7 v: 13. Červenec 2010, 02:04 »

ne mpeg4 nechci, h.264 má lepší kvalitu na nižším bitratu, jinak MPEG4 na vyšším bitrate ten problém nčemá ale to může být tím že je konstantní

taky by to mohlo být fps

zkusím omezit ten bitrate pod 300 a uvidí se
uložena
spratek
Uživatel
***
Telefon: C702
Příspěvků: 141


Zobrazit profil
« Odpověď #8 v: 13. Červenec 2010, 05:39 »

Opožďuje se to když je vysoký bitrate. Pokud nastavíš bitrate do cca 300kbps, což na rozlišení 320x240 bohatě stačí, tak by s tím neměl být problém. Fps mám klidně 25 a neopožďuje se to.

tak to bitratem určo není převedl sem do 256kb a není to ok

hoď někam to video co ti hraje dobře, nebo mediainfo z něho
mrknu se co to má za parametry,.
uložena
Swejzi
Uživatel
***
Telefon: C702
Příspěvků: 32


Zobrazit profil
« Odpověď #9 v: 13. Červenec 2010, 12:42 »

No s tím bitrate jsem na to přišel u nahrávání DVB-T přes AverTV. Je tam přednastavený profil pro iPod a tam se mi obraz se zvukem rozcházel. Ale pak jsem si vytvořil svůj profil, v podstatě totožný, ale s nižším bitrate a pak už to bylo OK.
Jinak přes ten 3GP Video Converter dělám videa v s připonou MP4, ale to je jen kontejner, takže těžko říct, co je to vlastně za kodek, ale každopádně to šlape krásně a kvalita je taky supr.

Tady máš ty videa. První je nahrávka z AverTV, druhé je vytvořeno pomocí 3GP Video Conv. Osobně mi přijde, že ten 3GP VC dělá kvalitnější video při stejném bitrate, i když to asi ani H.264 není.

http://uloz.to/5319094/0713125712dvb-tnova.mp4

http://uloz.to/5319093/r.e.m.-shiny-happy-people.mp4
uložena
Fórum SEMania.cz
   

 uložena
Strana: [1]
Poslat téma Tisk
Fórum SEMania.cz  |  Platforma A200  |  Řada C (Moderátor: Ganimed)  |  Téma: H.264 trubl
Skočit do:  


© SEMania 2004-2007 | Powered by SMF.
© 2005, Simple Machines. Všechna práva vyhrazena.
Stránka vytvořena za 0.579 sekund, 17 dotazů.